Turistas (Sightseers)2012[BDrip m720p][Castellano-Ingles AC3.5.1]Sub

Título original Sightseers
Año 2012
Duración 89 min.
País Reino Uno
Director Ben Wheatley
Guión Steve Oram, Alice Lowe
Música Jim Williams
Fotografía Laurie Rose
Reparto Steve Oram, Alice Lowe, Sara Stewart, Tony Way, Jonathan Aris, Lucy Russell,

Richard Lumsden, Monica Dolan
Productora Big Talk Productions / StudioCanal / Film4
Género Comedia | Comedia negra. Road Movie
Sinopsis
Chris (Steve Oram) quiere mostrarle a su introverta novia Tina (Alice Lowe) su mundo por
medio de un viaje por las Islas Británicas en su quera caravana Abbey Oxford. Pero, lo
que empiezan siendo unas ílicas vacaciones, acaban convirtiéndose en una diverta y

perturbadora odisea. (FILMAFFINITY)

RIPEO PROPIO
Formato: Mkv 
Tamaño: 2.23 GB 
Resolucion: 1280 x 544 
Audio 1: Español AC3.5.1 448 kbps 
Audio 2: Ingles AC3.5.1 448 kbps 
Subtitulos: Español,Ingles 

MEDIAINFO

Código:
Complete name                            : Turistas.BDrip.m-720p.xt.mkv
Format                                   : Matroska
Format version                           : Version 2
File size                                : 2.23 GiB
Duration                                 : 1h 28mn
Overall bit rate                         : 3 617 Kbps
Movie name                               : Turistas BDrip m-720p.xt
Encoded date                             : UTC 2013-10-10 09:22:55
Writing application                      : mkvmerge v5.8.0 ('No Sleep / Pillow') built on 

Sep  2 2012 15:37:04
Writing library                          : libebml v1.2.3 + libmatroska v1.3.0

Veo
ID                                       : 1
Format                                   : AVC
Format/Info                              : Advanced Veo Codec
Format profile                           : High@L4.1
Format settings, CABAC                   : Yes
Format settings, ReFrames                : 9 frames
Muxing mode                              : Header stripping
Codec ID                                 : V_MPEG4/ISO/AVC
Duration                                 : 1h 28mn
Bit rate                                 : 2 722 Kbps
Wth                                    : 1 280 pixels
Height                                   : 544 pixels
Display aspect ratio                     : 2.35:1
Frame rate mode                          : Constant
Frame rate                               : 23.976 fps
Color space                              : YUV
Chroma subsampling                       : 4:2:0
Bit depth                                : 8 bits
Scan type                                : Progressive
Bits/(Pixel*Frame)                       : 0.163
Stream size                              : 1.63 GiB (73%)
Writing library                          : x264 core 130 r2273 b3065e6
Encoding settings                        : cabac=1 / ref=9 / deblock=1:-3:-3 / 

analyse=0x3:0x113 / me=umh / subme=10 / psy=1 / psy_rd=1.00:0.00 / mixed_ref=1 / 

me_range=16 / chroma_me=1 / trellis=2 / 8x8dct=1 / cqm=0 / deadzone=21,11 / fast_pskip=1 / 

chroma_qp_offset=-2 / threads=12 / lookahead_threads=1 / sliced_threads=0 / nr=0 / 

decimate=1 / interlaced=0 / bluray_compat=0 / constrained_intra=0 / bframes=3 / b_pyram=2 

/ b_adapt=1 / b_bias=0 / direct=1 / weightb=1 / open_gop=0 / weightp=2 / keyint=250 / 

keyint_min=23 / scenecut=40 / intra_refresh=0 / rc=2pass / mbtree=0 / bitrate=2722 / 

ratetol=1.0 / qcomp=0.60 / qpmin=0 / qpmax=69 / qpstep=4 / cplxblur=20.0 / qblur=0.5 / 

ip_ratio=1.40 / pb_ratio=1.30 / aq=1:0.80
Language                                 : English
Default                                  : Yes
Forced                                   : No

Audio #1
ID                                       : 2
Format                                   : AC-3
Format/Info                              : Audio Coding 3
Mode extension                           : CM (complete main)
Format settings, Endianness              : Big
Muxing mode                              : Header stripping
Codec ID                                 : A_AC3
Duration                                 : 1h 28mn
Bit rate mode                            : Constant
Bit rate                                 : 448 Kbps
Channel count                            : 6 channels
Channel positions                        : Front: L C R, Se: L R, LFE
Sampling rate                            : 48.0 KHz
Bit depth                                : 16 bits
Compression mode                         : Lossy
Stream size                              : 283 MiB (12%)
Title                                    : Castellano
Language                                 : Spanish
Default                                  : Yes
Forced                                   : No

Audio #2
ID                                       : 3
Format                                   : AC-3
Format/Info                              : Audio Coding 3
Mode extension                           : CM (complete main)
Format settings, Endianness              : Big
Muxing mode                              : Header stripping
Codec ID                                 : A_AC3
Duration                                 : 1h 28mn
Bit rate mode                            : Constant
Bit rate                                 : 448 Kbps
Channel count                            : 6 channels
Channel positions                        : Front: L C R, Se: L R, LFE
Sampling rate                            : 48.0 KHz
Bit depth                                : 16 bits
Compression mode                         : Lossy
Stream size                              : 283 MiB (12%)
Title                                    : Ingles
Language                                 : English
Default                                  : No
Forced                                   : No

Text #1
ID                                       : 4
Format                                   : UTF-8
Codec ID                                 : S_TEXT/UTF8
Codec ID/Info                            : UTF-8 Plain Text
Title                                    : Completos Castellano
Language                                 : Spanish
Default                                  : No
Forced                                   : No

Text #2
ID                                       : 5
Format                                   : UTF-8
Codec ID                                 : S_TEXT/UTF8
Codec ID/Info                            : UTF-8 Plain Text
Title                                    : Completos ingles
Language                                 : English
Default                                  : No
Forced                                   : No





95 % enlaces free mixtos

SUBIDO ES PARTES DE 950 MB Y DE 100 MB 

En putlocker Faltan 1 O 2 Archivos que Podeis Descargar Del Resto De Servores Son

Intercambiables


SIN LINKBUCKS,ADF.LY NI ROOLLOS PUBLICITARIOS

ENLACES AQUI SIEMPRE ACTIVOS 

http://www.relink.us/f/7fea3156389e32eb7286348615df6f

================================================== ================
Descargar con JDownloader,si no lo teneis,lo podeis pillar de aqui

http://pastebin.com/pp4YGsc1

Si quieres bajar a toda velocad compra una premiun en cualquiera de mis enlaces

SI NO TE VAN LOS ENLACES PRUEBA ASI 

  • La noche de las bestias 2013 stream